Creating a Little Cartoon Turtle in Blender (2013)



Creating a Little Cartoon Turtle in Blender (2013)
AAC | 128 Kbps | 44.1 KHz | 2 channels | 4 hour | 1.21 GBGenre: Video Tutorial / 3D-graphics (2013)

In this Citizen tutorial series you’ll learn to create a little turtle character that could make a perfect fit for your next animated short. You’ll be taken through the complete workflow for creating the character. First you’ll go through box modeling the character and sculpting in details. Next learn how use UV unwrapping, baking and texturing to texture the character. This is followed by shading, lighting, and rendering the scene in Cycles. Finally you’ll rig the character and animate a short walk cycle along a path, complete with lip syncing for a short audio clip.
1 Introduction
(2:35)
2 Modeling the Head
(33:42)
3 Modeling the Body
(43:09)
4 Sculpting Details
(44:54)
5 Texturing the Eyes
(45:52)
6 Shading, Lighting, and Rendering
(24:52)
7 Rigging the Turtle
(55:58)
8 Animating a Walk Cycle
(36:39)
General
Complete name : blender_creating_cartoon-turtle_02.mp4
Format : MPEG-4
Format profile : Base Media
Codec ID : isom
File size : 193 MiB
Duration : 43mn 9s
Overall bit rate : 627 Kbps
Movie name : blender_creating_cartoon-turtle_02
Encoded date : UTC 2012-12-05 06:49:21
Tagged date : UTC 2013-02-15 19:56:52
Writing application : Lavf54.1.100
Cover : Yes
tven : 000
rtng : 0
Video #1
ID : 1
Format : AVC
Format/Info : Advanced Video Codec
Format profile : High@L3.1
Format settings, CABAC : Yes
Format settings, ReFrames : 4 frames
Codec ID : avc1
Codec ID/Info : Advanced Video Coding
Duration : 43mn 9s
Bit rate : 494 Kbps
Width : 1 280 pixels
Height : 720 pixels
Display aspect ratio : 16:9
Frame rate mode : Constant
Frame rate : 15.000 fps
Color space : YUV
Chroma subsampling : 4:2:0
Bit depth : 8 bits
Scan type : Progressive
Bits/(Pixel*Frame) : 0.036
Stream size : 152 MiB (79%)
Writing library : x264 core 120 r2164 da19765
Encoding settings : cabac=1 / ref=3 / deblock=1:0:0 / analyse=0x3:0x113 / me=hex / subme=7 / psy=1 / psy_rd=1.00:0.00 / mixed_ref=1 / me_range=16 / chroma_me=1 / trellis=1 / 8x8dct=1 / cqm=0 / deadzone=21,11 / fast_pskip=1 / chroma_qp_offset=-2 / threads=12 / sliced_threads=0 / nr=0 / decimate=1 / interlaced=0 / bluray_compat=0 / constrained_intra=0 / bframes=3 / b_pyramid=2 / b_adapt=1 / b_bias=0 / direct=1 / weightb=1 / open_gop=0 / weightp=2 / keyint=250 / keyint_min=15 / scenecut=40 / intra_refresh=0 / rc_lookahead=40 / rc=crf / mbtree=1 / crf=18.0 / qcomp=0.60 / qpmin=0 / qpmax=69 / qpstep=4 / ip_ratio=1.40 / aq=1:1.00
Language : English
Encoded date : UTC 2012-12-05 06:49:21
Tagged date : UTC 2012-12-05 06:49:21
Audio #2
ID : 2
Format : AAC
Format/Info : Advanced Audio Codec
Format profile : LC
Codec ID : 40
Duration : 43mn 9s
Bit rate mode : Constant
Bit rate : 128 Kbps
Channel(s) : 2 channels
Channel positions : Front: L R
Sampling rate : 44.1 KHz
Compression mode : Lossy
Stream size : 39.5 MiB (20%)
Language : English
Encoded date : UTC 2012-12-05 06:49:21
Tagged date : UTC 2012-12-05 06:49:21Screenshots
For more, Visit my
no mirrors please, Follow The Rules

http://cgcookie.com/blender/cgc-series/creating-a-little-cartoon-turtle-in-blender/
Creating a Little Cartoon Turtle in Blender.part3.rar
Creating a Little Cartoon Turtle in Blender.part2.rar
Creating a Little Cartoon Turtle in Blender.part1.rar